+ purisimahills.com »  :::: Hollywood Zone » TV Shows
|- How I Met Your Mother S01-9 (1080p x265 10bit Joy)


Mastercard 10% Off

How I Met Your Mother S01-9 (1080p x265 10bit Joy)

0 Members and 1 Guest are viewing this topic.

May 27, 2018, 07:53:42 PM




General
Complete name               : How I Met Your Mother S01E02 Purple Giraffe (1080p x265 Joy).m4v
Format                      : MPEG-4
Format profile              : Base Media / Version 2
Codec ID                    : mp42 (isom/iso2/mp41)
File size                   : 163 MiB
Duration                    : 22 min 6 s
Overall bit rate mode       : Variable
Overall bit rate            : 1 031 kb/s
Writing application         : HandBrake 0.10.1 2015030800

Video
ID                          : 1
Format                      : HEVC
Format/Info                 : High Efficiency Video Coding
Format profile              : [email protected]@Main
Codec ID                    : hev1
Codec ID/Info               : High Efficiency Video Coding
Duration                    : 22 min 6 s
Bit rate                    : 898 kb/s
Width                       : 1 920 pixels
Height                      : 1 080 pixels
Display aspect ratio        : 16:9
Frame rate mode             : Variable
Frame rate                  : 23.976 (24000/1001) FPS
Minimum frame rate          : 23.974 FPS
Maximum frame rate          : 23.981 FPS
Color space                 : YUV
Chroma subsampling          : 4:2:0
Bit depth                   : 8 bits
Bits/(Pixel*Frame)          : 0.018
Stream size                 : 142 MiB (87%)
Writing library             : x265 1.5:[Windows][GCC 4.9.0][64 bit]
Color range                 : Limited
Color primaries             : BT.709
Transfer characteristics    : BT.709
Matrix coefficients         : BT.709

Audio
ID                          : 2
Format                      : AAC
Format/Info                 : Advanced Audio Codec
Format profile              : HE-AAC / LC
Format settings             : NBC
Codec ID                    : mp4a-40-5
Duration                    : 22 min 6 s
Bit rate mode               : Variable
Bit rate                    : 128 kb/s
Channel(s)                  : 2 channels
Channel(s)_Original         : 6 channels
Channel positions           : Front: L C R, Side: L R, LFE
Sampling rate               : 48.0 kHz / 24.0 kHz
Frame rate                  : 23.438 FPS (1024 SPF)
Compression mode            : Lossy
Stream size                 : 20.2 MiB (12%)
Title                       : Surround / Surround
Language                    : English
Default                     : Yes
Alternate group             : 1

Share this topic on FacebookShare this topic on GoogleShare this topic on MySpaceShare this topic on TwitterShare this topic on Yahoo

« Last Edit: May 27, 2018, 08:02:00 PM by •●๋ Ñαтsυ ÐяαGиєєℓ™☣ »



Tags:
 

Related Topics

  Subject / Started by Replies Last post
0 Replies
638 Views
Last post February 04, 2016, 09:41:50 PM
by shalu
0 Replies
984 Views
Last post May 17, 2016, 07:36:30 AM
by RexNam
0 Replies
776 Views
Last post February 08, 2017, 09:39:12 PM
by kai2222
1 Replies
406 Views
Last post August 30, 2017, 03:59:25 PM
by ☮ARA☮
10 Replies
3198 Views
Last post May 14, 2018, 10:06:34 PM
by akramhashmi141516




Back to top
TV Show Standard | Katie Thornton - HuCows SiteRip | updated 2018-10-08 | Lernen (35)